http://www.hostpic.org/images/1908162250540107.jpg

Coursera - Major Depression in the Population A Public Health Approach
Johns Hopkins University with William Eaton

WEBRip | English | MP4 + PDF Guides | 960 x 540 | AVC ~30.5 kbps | 25 fps
AAC | 96 Kbps | 48.0 KHz | 2 channels | 03:59:57 | 405 MB
Genre: eLearning Video / Science, Mental Health, Medicine

Public Mental Health is the application of the principles of medicine and social science to prevent the occurrence of mental and behavioral disorders and to promote mental health of the population. This course illustrates the principles of public health applied to depressive disorder, including principles of epidemiology, transcultural psychiatry, health services research, and prevention. It is predicted that by 2020 depressive disorder will be the most important cause of disease burden in the entire world!

Every human being suffers from feeling depressed at some point or other, but only about one fifth of the population will experience an episode of depressive disorder over the course of their lives. This course illuminates the public health approach to disease, and the particular complexities of applying this approach to mental disorders, using depression as the exemplar.

Syllabus:

What is depression and what is depressive disorder?
How common is depressive disorder
The Global Burden of Depressive Disorder
Crosscultural variation in depression and depressive disorder
Epidemiologic research to uncover the causes of depression
Research on prevention of depression
The system of care for psychiatric disorders and depression

        General
Complete name               : 4 - 2 - Lecture 4B_ Stress & Diathesis (7_35).mp4
Format                      : MPEG-4
Format profile              : Base Media
Codec ID                    : isom
File size                   : 7.28 MiB
Duration                    : 7mn 35s
Overall bit rate mode       : Variable
Overall bit rate            : 134 Kbps
Encoded date                : UTC 1970-01-01 00:00:00
Tagged date                 : UTC 1970-01-01 00:00:00
Writing application         : Lavf52.99.1

Video
ID                          : 1
Format                      : AVC
Format/Info                 : Advanced Video Codec
Format profile              : High@L3
Format settings, CABAC      : Yes
Format settings, ReFrames   : 4 frames
Codec ID                    : avc1
Codec ID/Info               : Advanced Video Coding
Duration                    : 7mn 35s
Bit rate                    : 30.5 Kbps
Width                       : 960 pixels
Height                      : 540 pixels
Display aspect ratio        : 16:9
Frame rate mode             : Constant
Frame rate                  : 25.000 fps
Color space                 : YUV
Chroma subsampling          : 4:2:0
Bit depth                   : 8 bits
Scan type                   : Progressive
Bits/(Pixel*Frame)          : 0.002
Stream size                 : 1.66 MiB (23%)
Writing library             : x264 core 114 r1913 5fd3dce
Encoding settings           : cabac=1 / ref=1 / deblock=1:0:0 / analyse=0x3:0x113 / me=hex / subme=2 / psy=1 / psy_rd=0.00:0.00 / mixed_ref=0 / me_range=16 / chroma_me=1 / trellis=0 / 8x8dct=1 / cqm=0 / deadzone=21,11 / fast_pskip=1 / chroma_qp_offset=0 / threads=3 / sliced_threads=0 / nr=0 / decimate=1 / interlaced=0 / constrained_intra=0 / bframes=3 / b_pyramid=2 / b_adapt=1 / b_bias=0 / direct=1 / weightb=1 / open_gop=0 / weightp=0 / keyint=250 / keyint_min=25 / scenecut=40 / intra_refresh=0 / rc_lookahead=10 / rc=crf / mbtree=1 / crf=28.0 / qcomp=0.60 / qpmin=0 / qpmax=69 / qpstep=4 / ip_ratio=1.41 / aq=1:1.00
Language                    : English
Encoded date                : UTC 1970-01-01 00:00:00
Tagged date                 : UTC 1970-01-01 00:00:00

Audio
ID                          : 2
Format                      : AAC
Format/Info                 : Advanced Audio Codec
Format profile              : LC
Codec ID                    : 40
Duration                    : 7mn 35s
Bit rate mode               : Variable
Bit rate                    : 96.0 Kbps
Channel(s)                  : 2 channels
Channel positions           : Front: L R
Sampling rate               : 48.0 KHz
Compression mode            : Lossy
Stream size                 : 5.29 MiB (73%)
Language                    : English
Encoded date                : UTC 1970-01-01 00:00:00
Tagged date                 : UTC 1970-01-01 00:00:00   

Screenshots
   
http://www.hostpic.org/images/1908162250550112.jpg

http://www.hostpic.org/images/1908162250560094.jpg

http://www.hostpic.org/images/1908162250580105.jpg
DOWNLOAD
(Buy premium account for maximum speed and resuming ability)

Код:
http://nitroflare.com/view/C5912172EECB2AB/l1u9l.Coursera..Major.Depression.in.the.Population.A.Public.Health.Approach.part1.rar
http://nitroflare.com/view/23DA1346FC2333C/l1u9l.Coursera..Major.Depression.in.the.Population.A.Public.Health.Approach.part2.rar
http://nitroflare.com/view/175A8C5F28FFAC4/l1u9l.Coursera..Major.Depression.in.the.Population.A.Public.Health.Approach.part3.rar
http://nitroflare.com/view/259115DD38533EA/l1u9l.Coursera..Major.Depression.in.the.Population.A.Public.Health.Approach.part4.rar
http://nitroflare.com/view/F9F0CEE9FBB637F/l1u9l.Coursera..Major.Depression.in.the.Population.A.Public.Health.Approach.part5.rar


Код:
https://rapidgator.net/file/376981ad20ef9c3b22e04aed470c4ecf/l1u9l.Coursera..Major.Depression.in.the.Population.A.Public.Health.Approach.part1.rar
https://rapidgator.net/file/b5f62f1220f976b8828b79e925facac5/l1u9l.Coursera..Major.Depression.in.the.Population.A.Public.Health.Approach.part2.rar
https://rapidgator.net/file/a6a1e4bc66391e73560a1cf167a34d68/l1u9l.Coursera..Major.Depression.in.the.Population.A.Public.Health.Approach.part3.rar
https://rapidgator.net/file/7f9d3ea7e07878e74ac65a6d2a08898c/l1u9l.Coursera..Major.Depression.in.the.Population.A.Public.Health.Approach.part4.rar
https://rapidgator.net/file/d073723058bbec83663be02f4ff453cb/l1u9l.Coursera..Major.Depression.in.the.Population.A.Public.Health.Approach.part5.rar